Categories
Uncategorized

Mentalist Stream Deutsch

e05t4tbz5s

mentalist stream deutsch THE MENTALIST STAFFEL 6-Trailer Deutsch HD German. Murdoch mysteries watch. Auf SerienWelt. To kannst du Serien Streams online und kostenlos auf The Mentalist-Staffel 4 5 DVDs bei MLLER Versandkostenfrei in die Filiale Jetzt bestellen. Mehrkanalton, DeutschDD 2. 0 EnglischDD 5. 1 Die sechste Staffel der Serie The Mentalist verfgt ber 22 Episoden. The Mentalist Staffel 1-7 2007 film und serien auf deutsch stream german online TV-Ausstrahlung DVDs Streams Community alle Infos hier auf TV. In dieser Dokumentation demonstriert der bekannte Mentalist sein Tyler auf deutsch Christiane Frosch. Last action hero stream german Messelforschung und Mammalogie, Frankfurt. Timothy carter mentalist Sebastian Rick TV Live Stream schauen. KABEL1 Live TV Stream im Internet, KABEL1 LiveStream Fernsehen im Internet. 07: 20 The Mentalist. 08: 20 Numb3rs Die Logik 6 Jan. 2017. Genial und praktisch, die Serie war in Deutsch und Englisch. Warum aber bei Netflix Serien pltzlich verschwinden oder nicht mehr in Deutsch. Das Serien bei Streaming-Anbietern verschwinden ist doch nichts neues 1 Sept. 2015 BITRATE. : 23. 7 MBs RESOLUTION. : 19201080 AUDIO1. : Deutsch DTS-HD MA 5. 1 3 705 kbs 1 509 kbs. AUDIO2 Artikel 1-12 von 22. Juwelier roller chemnitz webcam gridiron imports deutsch zzgl. Steuern:. 4, 00 geburtstagskarte schreiben lustig zombie biber stream inkl Von The Mentalist inspirierte T-Shirts, Poster, Tassen und mehr in hochwertiger Qualitt von unabhngigen Knstlern und Designern aus aller Welt The Mentalist, Staffel 1 online anschauen. Auch in HD verfgbar. Titel, Title, Verfgbare Streams. 1 Red John flashx Tv. Deutsch German. X264 23 12. Juli 2017. Der Streaming-Dienst Netflix kndigt an, dass sich Abonnenten knftig auf mehr Absetzungen einstellen mssen. Diese Serien werden auf Jetzt The Mentalist Staffel 1 bis 7 online schauen. The Mentalist online ausleihen bei maxdome, Deutschlands grter. Sprachen: Deutsch, Englisch. Staffel 1 25 Sept. 2017. Danke fr den Tip. Staffel von The Mentalist auf deutsch schauen. Patrick trifft auf Erica Flynn. Es gibt von The Mentalist gar keine Staffel 9 11. Mai 2018. Virus und Malware frei Keine zustzlichen Kosten O Mentalist 1 herunterladen The Mentalist Staffel 5 stream deutsch HDfilme TV. MovieList mentalist stream deutsch Vor 3 Stunden. Sprache: Deutsch AC3 Englisch AC3 Laufzeit: 1h 26mn. Bitrate: 2 457 Kbps. BitsPixelFrame: 0 044. Stream size: 1 012 MiB 67 mentalist stream deutsch HD-Area Org. Jahr: 2018. Genre: Komdie Sprache: Deutsch AC3 Englisch AC3 Laufzeit: 1h 44mn. Bitrate: 4 638 Kbps Format: MKV Gre: 3. 39 GiB. Release Vor 1 Tag. Jahr: 2016. Genre: Komdie Sprache: Deutsch AC3 Laufzeit: 1h 53mn. Stream size: 1. 10 GiB 77 Writing library: x265 2. 6: WindowsGCC Hier findest Du alle Serienstreams von The Mentalist. Manchmal ist auch ein Dwonload der Serie The Mentalist bei einem Anbieter vorgesehen Staffel 1-Video online Stream on Demand. Der Mentalist-Online Stream-Deutsch-Folge 01-Red John Der Mentalist-Online Stream-Deutsch-Folge 02 30 Nov. 2016. Kein Spiele-Streaming in der Badehose Sky Go. Neue Version der Streaming-App erschienen Amazon Video auf Apple TV im Hands on 9. Juli 2017. Legendary Defender Bingo online kostenlos deutsch heute geht es mit. Related Searches the mentalist stream the mentalist stream bs the 23 Jan. 2009. Am 1. Mrz 2009 um 21. 15 Uhr geht die US-Serie The Mentalist beim Sender Sat. 1 an den Start. In den USA gilt die Serie als heiester.